تبلیغات
Powershell Shortcut Properties - Planet Der Affen Prevolution 1080p
چهارشنبه 25 اسفند 1395  05:28 ق.ظ
توسط: Angel Coleman




Planet Der Affen Prevolution 1080p -- http://shorl.com/kujabapruvini




















































Planet Der Affen Prevolution 1080p

von glockner 19.02.17 19:37 Netzwerk, Internetzugnge und Router Fragen, Hilfe und Support zum Thema Netzwerk, Internetzugnge und Router Themen: 93 Beitrge: 210 Netzwerk mit 2 Routern von flashgohst79 27.02.17 19:06 PNA-, PDA- & KFZ-Navigation Talk, Hilfe, Fragen und Support zum Thema Navigation/PDA Themen: 22 Beitrge: 53 [Suche] aktuelles. Sign in Add translations 9,483 views 9 Like this video? Sign in to make your opinion count. von Bilbo 03.03.17 13:08 Szene Talk Neuigkeiten und Diskussionen rund um den Untergrund Themen: 194 Beitrge: 674 Betrger betrgen!!! von IceKillFX57 03.03.17 20:31 Downtimes, Invites und Suche Invite-Angebote/-Suche, Downtimes und Seitensuche Themen: 89 Beitrge: 343 Suche Invite Code fr. 3D HDD Movies 3D Movie Planet Best Teen Porn Blog HDD 4 you 3D Movies Moonless Loadz Die Nr.1 der Movie Seiten Movie Tempel Porn DDL Planet . Bild anklicken zum Download . Bild anklicken zum Download . von Neutronix Heute 03:35 Marktplatz Suche Themen: 303 Beitrge: 757 Verkaufe DOOM (2016) [PC]. Alles ist erlaubt! Themen: 57 Beitrge: 2.513 Assoziationskette von R00kie 11.03.17 12:58 Zwischenmenschliches Beziehungen, Lust und Frust Themen: 29 Beitrge: 409 Anti-Rassist Hitler:. Add to Want to watch this again later? Sign in to add this video to a playlist. Forum enthlt neue Beitrge. FoxKino 842,350 views 2:33 PLANET DER AFFEN - REVOLUTION Trailer & Filmclips [HD] - Duration: 5:22. Bild anklicken zum Download . von sprittinec Heute 01:52 Apple Tutorials Mac Apple TV iPod iPad iPhone & iPod Touch Themen: 169 Beitrge: 482 Beauty Retouch Panel CC for. myGully Board Board Regeln Hilfe/FAQ Jetzt registrieren! Toplist . Es ist jetzt 03:35 Uhr.All trademarks are the property of their respective owners. 3D HDD Movies 3D Movie Planet Best Teen Porn Blog HDD 4 you 3D Movies Moonless Loadz Die Nr.1 der Movie Seiten Movie Tempel Porn DDL Planet . Forenbersicht . Bild anklicken zum Download . Bluray und 3D MoviesBluray und 3D Movies Kategorie auswhlen Filme(4.617) 1080p BluRay(1.454) 3D(1.045) Abenteuer(808) Action(692) Bibel(43) Dokus(320) Drama(302) Familie(158) Fantasy(240) Horror(337) Kinderfilme(195) Komdie(543) Kriegsfilm(48) Musikfilm(63) Mysterie(23) Mystery(7) Romance(78) Science Fiction(363) Thriller(193) Zeichentrick(233) Zeichentrick Animation(159) Serien(61) Abenteuer(16) Action(7) Drama(9) Familie(3) Fantasy(7) Horror(3) Kinder(6) Komdie(10) Krieg(4) Krimi(3) Romance(3) Science Fiction(9) Zeichentrick Animation(4) TV Serien A bis Z(10) WcW Wrestling(7) WWE Wrestling(843) PPV 1985(2) PPV 1986(2) PPV 1987(2) PPV 1988(8) PPV 1989(8) PPV 1990(7) PPV 1991(7) PPV 1991(4) PPV 1992(11) PPV 1992(4) PPV 1993(10) PPV 1993(5) PPV 1994(12) PPV 1994(5) PPV 1995(11) PPV 1995(5) PPV 1996(15) PPV 1996(16) PPV 1997(17) PPV 1997(21) PPV 1998(14) PPV 1998(20) PPV 1999(26) PPV 1999(22) PPV 2000(36) PPV 2000(24) PPV 2001(16) PPV 2001(22) PPV 2002(24) PPV 2003(28) PPV 2004(33) PPV 2005(63) PPV 2006(55) PPV 2007(28) PPV 2008(28) PPV 2009(38) PPV 2010(27) PPV 2011(11) PPV 2012(25) PPV 2013(26) PPV 2014(25) PPV 2015(22) PPV 2016(18) PPV 2017(3) TNA Wrestling(22) Wrestling Extras und Dokus(30) PPV 2012(22) XXX Clips(1.049) Amateur Teen Girls(143) Casting das erste mal(37) College Teens(82) Creampie(107) Doppel Penetration(64) Dreier(66) Fake Hospital(13) Fisting(55) Homemade Privat Clips(171) Inzest(68) Massage Pornos mit Teens(100) Schwarze Kerle ficken Weise Frauen(79) Schwarze Mnner ficken Weise Frauen(245) Sex mit Fremden Mnnern(148) Zwei Kerle ficken eine Frau(116) XXX Filme(325) BBC Schwarze ficken Weisse Girls(2) Creampie(8) Fremde ficken meine Frau(1) Inzest(15) Teeny(59) . Close Yeah, keep it Undo Close This video is unavailable.

Suche nach: . .. von bl0rg 12.03.17 18:22 Videobearbeitung Probleme mit Videodateien, etc. Bild anklicken zum Download . Unique ID : 197779319920010290772365383901902161848 (0x94CAE955899B573EB1D6AC71D45647B8) Complete name : prevolu.mkv Format : Matroska Format version : Version 2 File size : 11.7 GiB Duration : 1h 44mn Overall bit rate : 16.0 Mbps Encoded date : UTC 2012-10-14 11:14:11 Writing application : mkvmerge v3.4.0 ('Rapunzel') gebaut am May 15 2010 09:38:20 Writing library : libebml v0.8.0 + libmatroska v0.9.0 Video ID : 1 Format : AVC Format/Info : Advanced Video Codec Format profile : HighL4.1 Format settings, CABAC : Yes Format settings, ReFrames : 5 frames Codec ID : VMPEG4/ISO/AVC Duration : 1h 44mn Bit rate : 13.4 Mbps Width : 1 920 pixels Height : 816 pixels Display aspect ratio : 2.35:1 Frame rate mode : Constant Frame rate : 23.976 (24000/1001) fps Color space : YUV Chroma subsampling : 4:2:0 Bit depth : 8 bits Scan type : Progressive Bits/(Pixel*Frame) : 0.356 Stream size : 9.81 GiB (84%) Title : 1080p Pate Writing library : x264 core 125 r2200 999b753 Encoding settings : cabac=1 / ref=5 / deblock=1:-2:-2 / analyse=0x3:0x113 / me=umh / subme=9 / psy=1 / psyrd=1.20:0.00 / mixedref=1 / merange=24 / chromame=1 / trellis=2 / 8x8dct=1 / cqm=0 / deadzone=21,11 / fastpskip=0 / chromaqpoffset=-2 / threads=12 / lookaheadthreads=2 / slicedthreads=0 / nr=0 / decimate=1 / interlaced=0 / bluraycompat=0 / constrainedintra=0 / bframes=5 / bpyramid=2 / badapt=1 / bbias=0 / direct=3 / weightb=1 / opengop=0 / weightp=2 / keyint=250 / keyintmin=23 / scenecut=40 / intrarefresh=0 / rc=crf / mbtree=0 / crf=19.0 / qcomp=0.60 / qpmin=16 / qpmax=69 / qpstep=4 / ipratio=1.40 / pbratio=1.30 / aq=1:1.00 Language : German Default : Yes Forced : Yes Audio #1 ID : 2 Format : DTS Format/Info : Digital Theater Systems Mode : 16 Format settings, Endianness : Big Codec ID : ADTS Duration : 1h 44mn Bit rate mode : Constant Bit rate : 768 Kbps Channel(s) : 6 channels Channel positions : Front: L C R, Side: L R, LFE Sampling rate : 48.0 KHz Frame rate : 93.750 fps (512 spf) Bit depth : 24 bits Compression mode : Lossy Delay relative to video : 11ms Stream size : 576 MiB (5%) Title : German DTS 5.1 Language : German Default : Yes Forced : Yes Audio #2 ID : 3 Format : DTS Format/Info : Digital Theater Systems Mode : 16 Format settings, Endianness : Big Codec ID : ADTS Duration : 1h 44mn Bit rate mode : Constant Bit rate : 1 509 Kbps Channel(s) : 6 channels Channel positions : Front: L C R, Side: L R, LFE Sampling rate : 48.0 KHz Frame rate : 93.750 fps (512 spf) Bit depth : 24 bits Compression mode : Lossy Stream size : 1.11 GiB (9%) Title : English DTS 5.1 Language : English Default : No Forced : No Download: Share Online Uploaded Share Online UploadedShare Online UploadedShare Online Uploaded. von dastro 28.02.17 19:24 Sicherheit und Anonymitt Truecrypt, OpenVPN & Co Themen: 311 Beitrge: 2.120 Sind warez ebooks wircklich. Blog via E-Mail abonnieren Gib deine E-Mail-Adresse ein, um dieses Blog zu abonnieren und Benachrichtigungen ber neue Artikel per E-Mail zu erhalten. von freakpor Gestern 14:02 Windows & Software Windows10 Windows7 Windows (andere) Windows8 Windows Phone Software Beitrge: 78.903, Themen: 12.587 Word - Mit Checkboxen Text. 8a9bf390f8
indian flag logo hd 1080p
shivam hd video songs 1080p resolution
full song hd 1080p blu-ray video codec
full hd demo videos 1080p vs 720p
free download mp3 song zindagi aa raha hoon main 720p
30 rock s06e17 720p hd
fast and furious 7 download 720p trailers
nayak 720p br rip xvid
grey anatomy s09e11 720p tv
jugni ji kanika kapoor 1080p video


  • آخرین ویرایش:-
نظرات()   
   
https://www.viagrapascherfr.com/viagra-femme-naturel/
جمعه 28 مهر 1396 02:43 ق.ظ
Thank you a bunch for sharing this with all folks you really know what you're speaking about!
Bookmarked. Please additionally discuss with my web site =).
We may have a link exchange agreement among us
What do you do for a strained Achilles tendon?
پنجشنبه 16 شهریور 1396 08:01 ق.ظ
Very quickly this site will be famous among all blog users, due to it's pleasant posts
Riley
دوشنبه 5 تیر 1396 12:42 ب.ظ
I am very happy to read this. This is the kind of manual that needs to be given and not
the accidental misinformation that is at the other blogs. Appreciate your sharing this greatest doc.
sabletail1055.snack.ws
سه شنبه 2 خرداد 1396 09:22 ب.ظ
Thanks for any other excellent article. Where else could anyone get
that type of information in such a perfect way of writing?
I've a presentation subsequent week, and I am on the search for such info.
BHW
دوشنبه 28 فروردین 1396 01:09 ب.ظ
whoah this blog is fantastic i like reading your articles.
Keep up the good work! You realize, many individuals are searching
round for this info, you can aid them greatly.
BHW
پنجشنبه 24 فروردین 1396 03:22 ق.ظ
This paragraph will help the internet people for creating new blog or even a weblog from start to end.
manicure
سه شنبه 22 فروردین 1396 02:02 ق.ظ
It's appropriate time to make some plans for the future
and it is time to be happy. I've read this post and if I could I
want to suggest you some interesting things or tips.
Perhaps you could write next articles referring to this article.

I wish to read more things about it!
manicure
یکشنبه 20 فروردین 1396 09:52 ب.ظ
Thanks on your marvelous posting! I actually enjoyed reading it,
you will be a great author.I will be sure to bookmark your blog
and will come back sometime soon. I want to encourage
continue your great work, have a nice day!
manicure
جمعه 18 فروردین 1396 04:21 ب.ظ
Hello, I read your blogs on a regular basis. Your story-telling style is awesome,
keep up the good work!
manicure
دوشنبه 14 فروردین 1396 11:28 ب.ظ
It's remarkable to pay a quick visit this site and
reading the views of all mates about this article, while I am also keen of
getting familiarity.
 
لبخندناراحتچشمک
نیشخندبغلسوال
قلبخجالتزبان
ماچتعجبعصبانی
عینکشیطانگریه
خندهقهقههخداحافظ
سبزقهرهورا
دستگلتفکر